Record of Ragnarok (2021) [12/12] Latino HD [720P] [GoogleDrive] DizonHD

Capturas

 

DATOS TÉCNICOS

Format                         : MPEG-4
Format profile                 : Base Media
Codec ID                       : isom (isom/iso2/avc1/mp41)
File size                      : 281 MiB
Duration                       : 24 min 37 s
Overall bit rate mode          : Variable
Overall bit rate               : 1 597 kb/s
Movie name                     : [S01.E01] Record of Ragnarok – Ragnarok – ByAlxZeroX
Writing application            : Lavf56.32.100

Video
ID                             : 1
Format                         : AVC
Format/Info                    : Advanced Video Codec
Format profile                 : [email protected]
Format settings                : CABAC / 4 Ref Frames
Format settings, CABAC         : Yes
Format settings, Reference fra : 4 frames
Codec ID                       : avc1
Codec ID/Info                  : Advanced Video Coding
Duration                       : 24 min 37 s
Bit rate                       : 1 467 kb/s
Width                          : 1 280 pixels
Height                         : 720 pixels
Display aspect ratio           : 16:9
Frame rate mode                : Variable
Frame rate                     : 23.976 FPS
Minimum frame rate             : 23.564 FPS
Maximum frame rate             : 24.390 FPS
Color space                    : YUV
Chroma subsampling             : 4:2:0
Bit depth                      : 8 bits
Scan type                      : Progressive
Bits/(Pixel*Frame)             : 0.066
Stream size                    : 258 MiB (92%)
Title                          : ByAlxZeroX
Language                       : Japanese
Codec configuration box        : avcC

Audio
ID                             : 2
Format                         : AAC LC
Format/Info                    : Advanced Audio Codec Low Complexity
Codec ID                       : mp4a-40-2
Duration                       : 24 min 37 s
Bit rate mode                  : Variable
Bit rate                       : 123 kb/s
Maximum bit rate               : 128 kb/s
Channel(s)                     : 2 channels
Channel layout                 : L R
Sampling rate                  : 48.0 kHz
Frame rate                     : 46.875 FPS (1024 SPF)
Compression mode               : Lossy
Stream size                    : 21.8 MiB (8%)
Title                          : ByAlxZeroX
Language                       : Spanish
Default                        : Yes
Alternate group                : 1

como descargar ?

Contraseña/Password: animesgd.net

SOLO MIEMBROS VIP

lista de capitulos haz click abajo

Ver Enlaces Vip

¿Aún no eres VIP? Conoce los beneficios AQUi

descargar aqui abajo

descargar

Subido por: by RijoHD

 Gracias y cualquier duda no duden en dejar un comentario

Te recomendamos usar el reproductor VLC Player para que no tengas problemas al reproducir la película en tu PC o celular.

NOTA 1 los videos que estan en formato mkv no se veran los subtitulos en el reproductor de googledrive deben descargarlos y reproducirlos en el reproductor vlc

NOTA 2 Recuerden desactivar el Adblock, para que puedan acceder a la descarga.

Visited 2 times, 1 visit(s) today
© 2024 animesgd.net.
© 2024 animesgd.net.